Top 10
Ъплоудъри


N. Име Качил
1oziris811533 БГ Субтитри
2veskoka402 БГ Субтитри
3SHWZ249 БГ Субтитри
4sirG0sh0240 БГ Субтитри
5zalmen235 БГ Субтитри
6eleutherios213 БГ Субтитри
7aXXo207 БГ Субтитри
8Chav195 БГ Субтитри
9bigprof171 БГ Субтитри
10asensi85114 БГ Субтитри

N. Име Качил
1aXXo5767 БГ Субтитри
2diojan923 БГ Субтитри
3subtitri304 БГ Субтитри
4oziris811195 БГ Субтитри
5zalmen167 БГ Субтитри
6veskoka131 БГ Субтитри
7eleutherios109 БГ Субтитри
8bigprof59 БГ Субтитри
9torenta59 БГ Субтитри
10SLR37 БГ Субтитри

N. Име Качил
1aXXo170 БГ Субтитри
2oziris811143 БГ Субтитри
3diojan110 БГ Субтитри
4zalmen85 БГ Субтитри
5SLR38 БГ Субтитри
6subtitri24 БГ Субтитри
7Miroslav9 БГ Субтитри
8Paloma8 БГ Субтитри
9dorador8 БГ Субтитри
10bigprof7 БГ Субтитри


Subway / Метро 1985


Български субтитри
Свали субтитри

URL:

Име : Subway / Метро 1985
Рилийз : Subway.1985.x264.AC3-WAF
Преводач : V2000, поправка на множество правописни и пунктоационни грешки: RX8 !; Синхронизация: RX8 !
IMDb : Subway / Метро
Cd# : 1
FPS : 24.000
Сваляния : 18
Качени на : 2010-03-12 21:40:27
Качил : RX8  
Оцени субтитри : 
Оценка 0 от 5 (0 Гласа)

Благодарили: няма
ОписаниеSubway 1985 x264 AC3 - WAF





Метро 1985


Url: http://www.imdb.com/title/tt0090095/


Genre: Crime, Drama, Romance, Thriller


Режисьор: Люк Бесон

В Ролите: Изабел Аджани, Жан Рено, Кристоф Ламбер, Жан-Юг Англад, Етиен Шико, Жан-Пиер Бакри

Държава: Франция

Година: 1985

Release Date: 06 November 1985 (USA)

Времетраене: 01:42:20.448


Това е втория филм на известния днес френски кинорежисьор Люк Бесон и неговата премиера у нас с едно петнадесетгодишно закъснение е прекрасна възможност за киноманите да обогатят своите познания за този майстор на модерното кино. Но не само те ще бъдат привлечени от
специфичния аромат на филма, в който има не само динамиката на криминалния жанр, но и много от онова, което наричаме "френско чувство за хумор". Зад драмата на Елена режисьорът се опитва да пресъздаде сложната картина на съвременните нрави, в които се отразява и дуализмът на модерното битие. Авторът изгражда визията си за алтернативното общество, което живее паралелно с официалното по свои закони и със свои норми за нравственост. Преплитането им е сложно и болезнено, особено за индивидите, които са се примирили с двуличието и фалша на официалния бит и култура. Люк Бесон още в този филм проявява интерес към проблема за упадъка
на модерната цивилизация, който ще стане централен в по-късните му работи. В "Метро" ще видим младия и все още "световно непознат" Кристоф Ламбер, при това в амплоа, което
радикално ще промени след отиването си в Холивуд. Много куриозна е и изявата на любимия на Люк Бесон актьор Жан Рено, който се оказва и превъзходен барабанист. С други думи, "Метро" съвсем не е филм, изваден от прашоляка на архивите, а по-скоро умно предизвикателство към всички, които ценят и уважават изкуството в киното.


General
Complete name                    : Subway.1985.x264.AC3-WAF.mkv
Format                           : Matroska
File size                        : 1.37 GiB
Duration                         : 1h 42mn
Overall bit rate                 : 1 913 Kbps
Encoded date                     : UTC 2010-01-21 01:38:47
Writing application              : mkvmerge v3.0.0 ('Hang up your Hang-Ups') 编译于 Dec 12 2009 15:20:35
Writing library                  : libebml v0.7.9 + libmatroska v0.8.1

Video
ID                               : 1
Format                           : AVC
Format/Info                      : Advanced Video Codec
Format profile                   : [email protected]
Format settings, CABAC           : Yes
Format settings, ReFrames        : 3 frames
Muxing mode                      : Container [email protected]
Codec ID                         : V_MPEG4/ISO/AVC
Duration                         : 1h 42mn
Bit rate                         : 1 427 Kbps
Nominal bit rate                 : 1 463 Kbps
Width                            : 1 024 pixels
Height                           : 434 pixels
Display aspect ratio             : 2.35:1
Frame rate                       : 24.000 fps
Original frame rate              : 23.976 fps
Resolution                       : 8 bits
Colorimetry                      : 4:2:0
Scan type                        : Progressive
Bits/(Pixel*Frame)               : 0.134
Stream size                      : 1.02 GiB (75%)
Writing library                  : x264 core 80 r1376 3feaec2
Encoding settings                : cabac=1 / ref=3 / deblock=1:0:0 / analyse=0x3:0x133
/ me=umh / subme=7 / psy=1 / psy_rd=1.0:0.0 / mixed_ref=1 / me_range=16 / chroma_me=1
/ trellis=1 / 8x8dct=1 / cqm=0 / deadzone=21,11 / fast_pskip=1 / chroma_qp_offset=-2
/ threads=3 / sliced_threads=0 / nr=0 / decimate=1 / mbaff=0 / constrained_intra=0
/ bframes=3 / b_pyramid=0 / b_adapt=1 / b_bias=0 / direct=2 / wpredb=1 / wpredp=2
/ keyint=250 / keyint_min=25 / scenecut=40 / rc_lookahead=50 / rc=2pass / mbtree=1
/ bitrate=1463 / ratetol=1.0 / qcomp=0.60 / qpmin=10 / qpmax=51 / qpstep=4 / cplxblur=20.0
/ qblur=0.5 / ip_ratio=1.40 / aq=1:1.00

Audio
ID                               : 2
Format                           : AC-3
Format/Info                      : Audio Coding 3
Codec ID                         : A_AC3
Duration                         : 1h 42mn
Bit rate mode                    : Constant
Bit rate                         : 448 Kbps
Channel(s)                       : 2 channels
Channel positions                : L R
Sampling rate                    : 48.0 KHz
Stream size                      : 328 MiB (23%)







RX8 !
Подобни субтитри :
Subway.1985.x264.AC3-WAF Български субтитри

Все още няма коментари

Добави коментар


Сайт за субтитри за 0.000009 секунди е зареден!