Top 10
Ъплоудъри


N. Име Качил
1oziris811533 БГ Субтитри
2veskoka402 БГ Субтитри
3SHWZ249 БГ Субтитри
4zalmen235 БГ Субтитри
5sirG0sh0230 БГ Субтитри
6eleutherios213 БГ Субтитри
7aXXo207 БГ Субтитри
8Chav193 БГ Субтитри
9bigprof171 БГ Субтитри
10asensi85114 БГ Субтитри

N. Име Качил
1aXXo5739 БГ Субтитри
2diojan922 БГ Субтитри
3subtitri283 БГ Субтитри
4oziris811195 БГ Субтитри
5zalmen167 БГ Субтитри
6veskoka131 БГ Субтитри
7eleutherios109 БГ Субтитри
8bigprof59 БГ Субтитри
9torenta59 БГ Субтитри
10SLR37 БГ Субтитри

N. Име Качил
1aXXo170 БГ Субтитри
2oziris811143 БГ Субтитри
3diojan110 БГ Субтитри
4zalmen85 БГ Субтитри
5SLR38 БГ Субтитри
6subtitri24 БГ Субтитри
7Miroslav9 БГ Субтитри
8Paloma8 БГ Субтитри
9dorador8 БГ Субтитри
10bigprof7 БГ Субтитри


Rambo First Blood Part II / Рамбо Първа кръв 2 1985


Български субтитри
Свали субтитри

URL:

Име : Rambo First Blood Part II / Рамбо Първа кръв 2 1985
Рилийз : Rambo.First.Blood.Part.II.1985.BDRip.XviD.AC3-PRoDJi
Преводач : СВОБОДА ВИТОВА, Синхронизация: RX8 !
IMDb : Rambo First Blood Part II / Рамбо Първа кръв 2
Cd# : 1
FPS : 25.000
Сваляния : 208
Качени на : 2010-03-02 17:22:41
Качил : RX8  
Оцени субтитри : 
Оценка 5 от 5 (1 Глас)

Благодарили: geco1,
ОписаниеRambo First Blood Part II 1985 BD Rip XviD AC3 - PRoDJi





Рамбо: Първа кръв 2 1985


Url: http://www.imdb.com/title/tt0089880/


Genre: Action, Adventure, Thriller


Режисьор: Джордж Косматос

В ролите: Силвестър Сталоун, Ричърд Крена, Чарлз Снейпиър, Джулия Соул и други

Държава: САЩ

Година: 1985

Release Date: 22 May 1985 (USA)

Времетраене: 01:32:02.944


Зелената барета Джон Рамбо е освободен от затвора от бившия си командир и изпратен на секретна мисия във Виетнам. Той трябва да открие все още съществуващ лагер с военопленници,
да го заснеме за доказателство и да се изтегли. Но нещата при него никога не се развиват по план. Рамбо не би могъл да остане безучастен при наличието на американски пленници и ще направи всичко по силите си, за да ги освободи ... по своя си начин.


General
Complete name                    : Rambo.First.Blood.Part.II.1985.BDRip.XviD.AC3-PRoDJi.avi
Format                           : AVI
Format/Info                      : Audio Video Interleave
File size                        : 1.46 GiB
Duration                         : 1h 32mn
Overall bit rate                 : 2 271 Kbps
Movie name                       : Rambo First Blood Part II 1985 BD Rip XviD AC3 - PRoDJi
Director                         : RX8 ! (Source: BD Rip)
Genre                            : Action, Adventure, Thriller
Recorded date                    : 02.03.2010
Writing application              : VirtualDubMod 1.6.0.0 SURROUND (build 2560/release)
Writing library                  : VirtualDubMod build 2560/release
Copyright                        : RX8 !
Comment                          : RX8 ! 02.03.2010

Video
ID                               : 0
Format                           : MPEG-4 Visual
Format profile                   : Advanced [email protected]
Format settings, BVOP            : Yes
Format settings, QPel            : No
Format settings, GMC             : No warppoints
Format settings, Matrix          : Custom
Codec ID                         : XVID
Codec ID/Hint                    : XviD
Duration                         : 1h 32mn
Bit rate                         : 1 813 Kbps
Width                            : 720 pixels
Height                           : 304 pixels
Display aspect ratio             : 2.35:1
Frame rate                       : 25.000 fps
Resolution                       : 8 bits
Colorimetry                      : 4:2:0
Scan type                        : Progressive
Bits/(Pixel*Frame)               : 0.331
Stream size                      : 1.17 GiB (80%)
Writing library                  : XviD 1.2.1 (UTC 2008-12-04)

Audio
ID                               : 1
Format                           : AC-3
Format/Info                      : Audio Coding 3
Codec ID                         : 2000
Duration                         : 1h 32mn
Bit rate mode                    : Constant
Bit rate                         : 448 Kbps
Channel(s)                       : 6 channels
Channel positions                : Front: L C R, Surround: L R, LFE
Sampling rate                    : 48.0 KHz
Stream size                      : 295 MiB (20%)
Alignment                        : Split accross interleaves
Interleave, duration             : 40 ms (1.00 video frame)
Interleave, preload duration     : 500 ms







RX8 !
Подобни субтитри :
Rambo.III.1988.BDRip.XviD.AC3-PRoDJi Български субтитри
Rambo.2008.BDRip.XviD.AC3-PRoDJi Български субтитри
Rambo.First.Blood.1982.BDRip.XviD.AC3-PRoDJi Български субтитри
Rambo-The.Complete.Collector`s.Set[2008]DvDrip-aXXo Български субтитри
Rambo.First.Blood.[DVDRip]........Rambo.First.Blood.I.1982.UE.DVDRip.XviD.AC3........Rambo.First.Blood.1982.HDDVDRiP.720p.DTS-ES.x264 Български субтитри
Rambo.IV.(2008).Extended.Version720p.Bluray Английски субтитри
Rambo.First.Blood.Part.II.1985.BDRip.XviD.AC3-PRoDJi Български субтитри
Rambo.III.1988.UNCUT.m720p.BluRay.x264-BiRD Английски субтитри
Rambo:.First.Blood.II.1985.UNCUT.m720p.BluRay.x264 Английски субтитри
Rambo.First.Blood.1982.1080p.BluRay.x264-CiNEFiLE Английски субтитри

Все още няма коментари

Добави коментар


Сайт за субтитри за 0.000017 секунди е зареден!