Top 10
Ъплоудъри


N. Име Качил
1oziris811533 БГ Субтитри
2veskoka402 БГ Субтитри
3SHWZ249 БГ Субтитри
4zalmen235 БГ Субтитри
5sirG0sh0227 БГ Субтитри
6eleutherios213 БГ Субтитри
7aXXo207 БГ Субтитри
8Chav190 БГ Субтитри
9bigprof171 БГ Субтитри
10asensi85114 БГ Субтитри

N. Име Качил
1aXXo5699 БГ Субтитри
2diojan922 БГ Субтитри
3subtitri283 БГ Субтитри
4oziris811195 БГ Субтитри
5zalmen167 БГ Субтитри
6veskoka131 БГ Субтитри
7eleutherios109 БГ Субтитри
8bigprof59 БГ Субтитри
9torenta59 БГ Субтитри
10SLR37 БГ Субтитри

N. Име Качил
1aXXo170 БГ Субтитри
2oziris811143 БГ Субтитри
3diojan110 БГ Субтитри
4zalmen85 БГ Субтитри
5SLR38 БГ Субтитри
6subtitri24 БГ Субтитри
7Miroslav9 БГ Субтитри
8Paloma8 БГ Субтитри
9dorador8 БГ Субтитри
10bigprof7 БГ Субтитри


Transformers: Revenge of the Fallen 2009


Български субтитри
Свали субтитри

URL:

Име : Transformers: Revenge of the Fallen 2009
Рилийз : Transformers.2.2009.IMAX.720p.x264.DTS.2AUDIO-WAF
Преводач : E-Tle™ a.k.a. Владислав Владев
IMDb : Transformers: Revenge of the Fallen
Cd# : 1
FPS : 23.976
Сваляния : 284
Качени на : 2010-02-28 14:25:27
Качил : RX8  
Оцени субтитри : 
Оценка 0 от 5 (0 Гласа)

Благодарили: няма
ОписаниеTransformers 2 2009 IMAX 720p x264 DTS 2AUDIO - WAF





Трансформърс 2: Отмъщението 2009


Url: http://www.imdb.com/title/tt1055369/


Genre: Action, Adventure, Sci-Fi


Сценарист: Ерън Кругер

Режисьор: Майкъл Бей

Актьори: Шия Лебьоф, Меган Фокс, Джош Дюамел, Тайрис Гибсън, Джон Туртуро, Рамон Родригез, Кевин Дън, Джули Уайт, Исабел Лукас, Джон Бенджамин Хики, Матю Марсдън, Андрю Хауърд

Година: 2009

Release Date: 26 June 2009 (Bulgaria)

Държава: САЩ

Времетраене: 02:30:24.939

Това е издание, в което най-зрелищните сцени са снимани с IMAX камери. Сцените са с различни ъгли и в пълен размер на екрана, а не са орязани както театралната версия, което дава максимално усещане за реализъм!

Самото издание е по-дълго с 30 сек. Качеството е жестоко, само за колекционери.

Шия Лебьоф и Мегън Фокс отново са начело на „Трансформърс: Отмъщението”, а Майкъл Бей пак заема режисьорския пост. Битката за Земята приключи, но тази за Вселената едва сега
започва. След завръщането на Кибертон, Старскрийм поема командването на Десептиконите и решава да се върне със сила на Земята.

Автороботите вярват, че мирът на Земята е възможен, докато не разбират, че мъртвото тяло на Мегатрон е откраднато.


General
Complete name                    : Transformers.2.2009.IMAX.720p.x264.DTS.2AUDIO-WAF.mkv
Format                           : Matroska
File size                        : 7.91 GiB
Duration                         : 2h 30mn
Overall bit rate                 : 7 529 Kbps
Encoded date                     : UTC 2010-02-18 17:42:25
Writing application              : mkvmerge v3.0.0 ('Hang up your Hang-Ups') 编译于 Dec 12 2009 15:20:35
Writing library                  : libebml v0.7.9 + libmatroska v0.8.1

Video
ID                               : 1
Format                           : AVC
Format/Info                      : Advanced Video Codec
Format profile                   : [email protected]
Format settings, CABAC           : Yes
Format settings, ReFrames        : 3 frames
Muxing mode                      : Container [email protected]
Codec ID                         : V_MPEG4/ISO/AVC
Duration                         : 2h 30mn
Bit rate                         : 5 115 Kbps
Nominal bit rate                 : 5 264 Kbps
Width                            : 1 280 pixels
Height                           : 720 pixels
Display aspect ratio             : 16:9
Frame rate                       : 23.976 fps
Resolution                       : 8 bits
Colorimetry                      : 4:2:0
Scan type                        : Progressive
Bits/(Pixel*Frame)               : 0.231
Stream size                      : 5.37 GiB (68%)
Writing library                  : x264 core 80 r1376 3feaec2
Encoding settings                : cabac=1 / ref=3 / deblock=1:0:0 / analyse=0x3:0x133
/ me=umh / subme=7 / psy=1 / psy_rd=1.0:0.0 / mixed_ref=1 / me_range=16 / chroma_me=1
/ trellis=1 / 8x8dct=1 / cqm=0 / deadzone=21,11 / fast_pskip=1 / chroma_qp_offset=-2
/ threads=3 / sliced_threads=0 / nr=0 / decimate=1 / mbaff=0 / constrained_intra=0
/ bframes=3 / b_pyramid=0 / b_adapt=1 / b_bias=0 / direct=2 / wpredb=1 / wpredp=2
/ keyint=250 / keyint_min=25 / scenecut=40 / rc_lookahead=50 / rc=2pass / mbtree=1
/ bitrate=5264 / ratetol=1.0 / qcomp=0.60 / qpmin=10 / qpmax=51 / qpstep=4 / cplxblur=20.0
/ qblur=0.5 / ip_ratio=1.40 / aq=1:1.00

Audio #1
ID                               : 2
Format                           : DTS
Format/Info                      : Digital Theater Systems
Codec ID                         : A_DTS
Duration                         : 2h 30mn
Bit rate mode                    : Constant
Bit rate                         : 1 510 Kbps
Channel(s)                       : 6 channels
Channel positions                : Front: L C R, Surround: L R, LFE
Sampling rate                    : 48.0 KHz
Resolution                       : 24 bits
Stream size                      : 1.59 GiB (20%)
Language                         : English

Audio #2
ID                               : 3
Format                           : DTS
Format/Info                      : Digital Theater Systems
Codec ID                         : A_DTS
Duration                         : 2h 30mn
Bit rate mode                    : Constant
Bit rate                         : 755 Kbps
Channel(s)                       : 6 channels
Channel positions                : Front: L C R, Surround: L R, LFE
Sampling rate                    : 48.0 KHz
Resolution                       : 24 bits
Stream size                      : 812 MiB (10%)
Language                         : Chinese







RX8 !
Подобни субтитри :
Transformers.Age.of.Extinction.2014.720p.WEB-DL.DD5.1.H264 Английски субтитри
Transformers.Revenge.of.the.Fallen.DVDRip.XviD.iMBT Български субтитри
Transformers.Revenge.Of.The.Fallen.TS.XviD-FLAWL3SS Български субтитри
Transformers.Dark.of.the.moon.2011.TS.XViD-IMAGiNE Английски субтитри
Transformers.2.2009.IMAX.720p.x264.DTS.2AUDIO-WAF Български субтитри
Transformers.2.2009.IMAX.1080p.x264.DTS.2AUDIO-WAF Български субтитри
Transformers.Dark.Of.The.Moon.2011.MULTi.1080p.BluRay.x264.FHD Английски субтитри
Transformers.3.The.Dark.of.the.Moon.CAM.XVID.AC3-WBZ Български субтитри
Transformers.Revenge.of.the.Fallen.TS.XviD-DEViSE Български субтитри
Transformers-.Age.of.Extinction.(2014).HDTSx264AC3TiTAN Английски субтитри

Все още няма коментари

Добави коментар


Сайт за субтитри за 0.000016 секунди е зареден!